Tutsplus – Learn to Code with Python

Tutsplus – Learn to Code with Python
English | Size: 1.95 GB
Category: Tutorial

Python is a powerful language that is easy to learn and excels at many different types of computing. It is used to run large, well-known websites. It is used to process log files and make sense of their contents. It might even be used to create some of your favorite games! Not only that, but with a simple, expressive syntax, Python doesn’t have the gotchas and edge cases that make some other languages hard to learn.

In this course, instructor Derek Jenson will help you to learn to start coding with the Python language. You’ll start with the very basics to lay a solid foundation for future learning. Then, you’ll go deeper, learning more advanced ways of manipulating data with commonly used data structures. Later on, Derek will share some pointers with you about how to get data in and out of files and even store complex data structures in them. Finally, you’ll learn about some of Python’s powerful built-in networking features to write code that can talk to other computers on the internet.

General
Complete name : 01 – Introduction.mp4
Format : MPEG-4
Format profile : Base Media
Codec ID : isom
File size : 10.3 MiB
Duration : 2mn 4s
Overall bit rate : 697 Kbps
Writing application : Lavf57.61.100

Video
ID : 1
Format : AVC
Format/Info : Advanced Video Codec
Format profile : High@L3.1
Format settings, CABAC : Yes
Format settings, ReFrames : 4 frames
Codec ID : avc1
Codec ID/Info : Advanced Video Coding
Duration : 2mn 4s
Bit rate : 562 Kbps
Width : 1 280 pixels
Height : 720 pixels
Display aspect ratio : 16:10
Frame rate mode : Constant
Frame rate : 25.000 fps
Color space : YUV
Chroma subsampling : 4:2:0
Bit depth : 8 bits
Scan type : Progressive
Bits/(Pixel*Frame) : 0.024
Stream size : 8.31 MiB (81%)
Writing library : x264 core 148 r2744 b97ae06
Encoding settings : cabac=1 / ref=3 / deblock=1:0:0 / analyse=0x3:0x113 / me=hex / subme=7 / psy=1 / psy_rd=1.00:0.00 / mixed_ref=1 / me_range=16 / chroma_me=1 / trellis=1 / 8x8dct=1 / cqm=0 / deadzone=21,11 / fast_pskip=1 / chroma_qp_offset=-2 / threads=18 / lookahead_threads=3 / sliced_threads=0 / nr=0 / decimate=1 / interlaced=0 / bluray_compat=0 / constrained_intra=0 / bframes=3 / b_pyramid=2 / b_adapt=1 / b_bias=0 / direct=1 / weightb=1 / open_gop=0 / weightp=2 / keyint=250 / keyint_min=25 / scenecut=40 / intra_refresh=0 / rc_lookahead=40 / rc=crf / mbtree=1 / crf=14.0 / qcomp=0.60 / qpmin=0 / qpmax=69 / qpstep=4 / ip_ratio=1.40 / aq=1:1.00

Audio
ID : 2
Format : AAC
Format/Info : Advanced Audio Codec
Format profile : LC
Codec ID : 40
Duration : 2mn 4s
Bit rate mode : Constant
Bit rate : 129 Kbps
Channel(s) : 2 channels
Channel positions : Front: L R
Sampling rate : 44.1 KHz
Compression mode : Lossy
Stream size : 1.90 MiB (18%)

About WoW Team

I'm WoW Team , I love to share all the video tutorials. If you have a video tutorial, please send me, I'll post on my website. Because knowledge is not limited to, irrespective of qualifications, people join hands to help me.