Shaun Micallef’s Mad As Hell – S07E01 (21st June 2017)

Shaun Micallef’s Mad As Hell – S07E01 (21st June 2017)
English | Size: 605.05 MB
Category: Comedy

Seven veteran gunslingers agree to defend a poor Mexican village against an outbreak of Japanese encephalitis.
‘Shaun.Micallefs.Mad.As.Hell.S07E01.HDTV.x264.mp4’:
metadata:
major_brand : mp42
minor_version : 0
compatible_brands: mp42isom
creation_time : 2017-06-21 11:08:49

Duration: 00:28:19.92, start: 0.000000, bitrate: 2985 kb/s
Stream #0:0(und): Video: h264 (High) (avc1 / 0x31637661), yuv420p, 1920×1080
[SAR 1:1 DAR 16:9], 2726 kb/s, 25 fps, 25 tbr, 90k tbn, 50 tbc
metadata:
creation_time : 2017-06-21 11:08:49
Stream #0:1(eng): Audio: mp2 (mp4a / 0x6134706D), 48000 Hz, stereo, s16p, 255 kb/s

About WoW Team

I'm WoW Team , I love to share all the video tutorials. If you have a video tutorial, please send me, I'll post on my website. Because knowledge is not limited to, irrespective of qualifications, people join hands to help me.