Packt Publishing – Modern Python Solutions – Part 3

Packt Publishing – Modern Python Solutions – Part 3
English | Size: 803.74 MB
Category: Tutorial

Python is the preferred choice of developers, engineers, data scientists, and hobbyists everywhere. It is a great scripting language that can power your applications and provide great speed, safety, and scalability. By exposing Python as a series of simple recipes, you can gain insight into specific language features in a particular context. This video will arm you with the knowledge of creating applications with flexible logging, powerful configuration, and command-line options, automated unit tests, and good documentation. You will learn to use the Flask framework for Restful APIs. You will end the course equipped with the knowledge of testing, web services, and configuration and application integration tips and tricks.

Style and Approach
The course is broken down into 3 sections that build from simple language concepts to more complex applications of the language. The videos take a problem-solution approach to resolve issues commonly faced by Python programmers across the globe.

What You Will Learn

Get acquainted with advanced programming techniques in Python
Equip yourself to work with web services
Write proper tests to be sure a program works as advertised
Integrate application software using Python

General
Complete name : 01 – The Course Overview.mp4
Format : MPEG-4
Format profile : Base Media / Version 2
Codec ID : mp42
File size : 6.33 MiB
Duration : 3mn 25s
Overall bit rate mode : Variable
Overall bit rate : 258 Kbps
Encoded date : UTC 2017-03-17 13:50:31
Tagged date : UTC 2017-03-17 13:50:50
Writing application : HandBrake 0.9.8 2012071700

Video
ID : 1
Format : AVC
Format/Info : Advanced Video Codec
Format profile : [email protected]
Format settings, CABAC : Yes
Format settings, ReFrames : 4 frames
Codec ID : avc1
Codec ID/Info : Advanced Video Coding
Duration : 3mn 25s
Bit rate : 143 Kbps
Nominal bit rate : 384 Kbps
Width : 1 280 pixels
Height : 720 pixels
Display aspect ratio : 16:9
Frame rate mode : Constant
Frame rate : 25.000 fps
Color space : YUV
Chroma subsampling : 4:2:0
Bit depth : 8 bits
Scan type : Progressive
Bits/(Pixel*Frame) : 0.006
Stream size : 3.50 MiB (55%)
Writing library : x264 core 120
Encoding settings : cabac=1 / ref=1 / deblock=1:0:0 / analyse=0x1:0x111 / me=hex / subme=9 / psy=1 / psy_rd=1.00:0.00 / mixed_ref=0 / me_range=16 / chroma_me=1 / trellis=0 / 8x8dct=0 / cqm=0 / deadzone=21,11 / fast_pskip=1 / chroma_qp_offset=-2 / threads=6 / sliced_threads=0 / nr=0 / decimate=1 / interlaced=0 / bluray_compat=0 / constrained_intra=0 / bframes=3 / b_pyramid=2 / b_adapt=2 / b_bias=0 / direct=3 / weightb=1 / open_gop=0 / weightp=1 / keyint=250 / keyint_min=25 / scenecut=40 / intra_refresh=0 / rc_lookahead=10 / rc=2pass / mbtree=1 / bitrate=384 / ratetol=1.0 / qcomp=0.60 / qpmin=3 / qpmax=69 / qpstep=4 / cplxblur=20.0 / qblur=0.5 / ip_ratio=1.40 / aq=1:1.00
Encoded date : UTC 2017-03-17 13:50:31
Tagged date : UTC 2017-03-17 13:50:50
Color primaries : BT.709
Transfer characteristics : BT.709
Matrix coefficients : BT.709

Audio
ID : 2
Format : AAC
Format/Info : Advanced Audio Codec
Format profile : LC
Codec ID : 40
Duration : 3mn 25s
Bit rate mode : Variable
Bit rate : 112 Kbps
Maximum bit rate : 238 Kbps
Channel(s) : 2 channels
Channel positions : Front: L R
Sampling rate : 48.0 KHz
Compression mode : Lossy
Stream size : 2.75 MiB (43%)
Language : English
Encoded date : UTC 2017-03-17 13:50:31
Tagged date : UTC 2017-03-17 13:50:50

About WoW Team

I'm WoW Team , I love to share all the video tutorials. If you have a video tutorial, please send me, I'll post on my website. Because knowledge is not limited to, irrespective of qualifications, people join hands to help me.