Packt Publishing – Modern Python Solutions – Part 2

Packt Publishing – Modern Python Solutions – Part 2
English | Size: 1.67 GB
Category: Tutorial

Python is the preferred choice of developers, engineers, data scientists, and hobbyists everywhere. It is a great scripting language that can power your applications and provide great speed, safety, and scalability. By exposing Python as a series of simple recipes, you can gain insight into specific language features in a particular context. Having a tangible context helps make the language or standard library features easier to understand. This video comes with over 100 recipes on the latest version of Python.

The videos will touch on all the necessary Python concepts related to data structures, OOP, functional programming, as well as statistical programming. You will get acquainted with the nuances of Python syntax and how to effectively use the advantages that it offers.

You will be armed with the knowledge of creating applications with flexible logging, powerful configuration, and command-line options, automated unit tests, and good documentation.You will end the book equipped with the knowledge of testing, web services, and configuration and application integration tips and tricks.

Style and Approach
The course is broken down into 5 sections that build from simple language concepts to more complex applications of the language. The videos take a problem-solution approach to resolve issues commonly faced by Python programmers across the globe.

What You Will Learn

Explore the basic and advanced class design in Python
Perform input/output operations and get to know the logical layouts
Get acquainted with advanced programming techniques in Python
Equip yourself with functional and statistical programming features

General
Complete name : 01 – The Course Overview.mp4
Format : MPEG-4
Format profile : Base Media
Codec ID : isom
File size : 13.4 MiB
Duration : 3mn 39s
Overall bit rate : 512 Kbps
Writing application : Lavf57.56.100

Video
ID : 2
Format : AVC
Format/Info : Advanced Video Codec
Format profile : [email protected]
Format settings, CABAC : Yes
Format settings, ReFrames : 5 frames
Codec ID : avc1
Codec ID/Info : Advanced Video Coding
Duration : 3mn 39s
Bit rate : 377 Kbps
Nominal bit rate : 415 Kbps
Width : 1 280 pixels
Height : 720 pixels
Display aspect ratio : 16:9
Frame rate mode : Constant
Frame rate : 30.000 fps
Color space : YUV
Chroma subsampling : 4:2:0
Bit depth : 8 bits
Scan type : Progressive
Bits/(Pixel*Frame) : 0.014
Stream size : 9.86 MiB (74%)
Writing library : x264 core 148 r2721 72d53ab
Encoding settings : cabac=1 / ref=6 / deblock=1:0:0 / analyse=0x3:0x111 / me=hex / subme=7 / psy=1 / psy_rd=1.00:0.00 / mixed_ref=1 / me_range=16 / chroma_me=1 / trellis=1 / 8x8dct=1 / cqm=0 / deadzone=21,11 / fast_pskip=1 / chroma_qp_offset=-2 / threads=4 / lookahead_threads=1 / sliced_threads=0 / nr=0 / decimate=1 / interlaced=0 / bluray_compat=0 / stitchable=1 / constrained_intra=0 / bframes=16 / b_pyramid=1 / b_adapt=1 / b_bias=0 / direct=1 / weightb=1 / open_gop=0 / weightp=2 / keyint=60 / keyint_min=20 / scenecut=40 / intra_refresh=0 / rc_lookahead=40 / rc=abr / mbtree=1 / bitrate=415 / ratetol=1.0 / qcomp=0.60 / qpmin=10 / qpmax=50 / qpstep=4 / vbv_maxrate=2500 / vbv_bufsize=5000 / nal_hrd=none / filler=0 / ip_ratio=1.41 / aq=1:1.00

Audio
ID : 1
Format : AAC
Format/Info : Advanced Audio Codec
Format profile : LC
Codec ID : 40
Duration : 3mn 39s
Duration_LastFrame : -19ms
Bit rate mode : Constant
Bit rate : 128 Kbps
Channel(s) : 2 channels
Channel positions : Front: L R
Sampling rate : 44.1 KHz
Compression mode : Lossy
Stream size : 3.35 MiB (25%)

Buy Long-term Premium Accounts To Support Me & Max Speed

DOWNLOAD:


http://rapidgator.net/file/d3b25eec2aba85875cdaa5e64a67273a/Packt_Publishing_-_Modern_Python_Solutions_-_Part_2.part1.rar.html
http://rapidgator.net/file/d8cc2a0c65956339b758382a61daddd1/Packt_Publishing_-_Modern_Python_Solutions_-_Part_2.part2.rar.html
http://rapidgator.net/file/7740a71a4f4d0a462d2dc08c6928f4e8/Packt_Publishing_-_Modern_Python_Solutions_-_Part_2.part3.rar.html


http://nitroflare.com/view/1C676D43CCA3C38/Packt_Publishing_-_Modern_Python_Solutions_-_Part_2.part1.rar
http://nitroflare.com/view/7B0DD95CA7B6D72/Packt_Publishing_-_Modern_Python_Solutions_-_Part_2.part2.rar
http://nitroflare.com/view/61E5BA4DE0B9FFC/Packt_Publishing_-_Modern_Python_Solutions_-_Part_2.part3.rar

If any links die or problem unrar, send request to http://goo.gl/aUHSZc

About WoW Team

I'm WoW Team , I love to share all the video tutorials. If you have a video tutorial, please send me, I'll post on my website. Because knowledge is not limited to, irrespective of qualifications, people join hands to help me.