Packt Publishing – Modern Python Solutions – Part 1

Packt Publishing – Modern Python Solutions – Part 1
English | Size: 772.91 MB
Category: Tutorial

Python is the preferred choice of developers, engineers, data scientists, and hobbyists everywhere. It is a great scripting language that can power your applications and provide great speed, safety, and scalability. By exposing Python as a series of simple recipes, you can gain insight into specific language features in a particular context. Having a tangible context helps make the language or standard library feature easier to understand.This video comes with over 100 recipes on the latest version of Python. The recipes will benefit everyone ranging from beginner to an expert. The video is broken down into 13 sections that build from simple language concepts to more complex applications of the language.The recipes will touch upon all the necessary Python concepts related to data structures, OOP, functional programming, as well as statistical programming. You will get acquainted with the nuances of Python syntax and how to effectively use the advantages that it offers. You will end the book equipped with the knowledge of testing, web services, and configuration and application integration tips and tricks.The recipes take a problem-solution approach to resolve issues commonly faced by Python programmers across the globe. You will be armed with the knowledge of creating applications with flexible logging, powerful configuration, and command-line options, automated unit tests, and good documentation.

Style and Approach
This video takes a recipe-based approach, where each recipe addresses specific problems and issues. The recipes provide discussions and insights and an explanation of the problems.

What You Will Learn

See the intricate details of the Python syntax and how to use it to your advantage
Improve your code readability through functions in Python
Manipulate data effectively using built-in data structures
Get acquainted with advanced programming techniques in Python
Equip yourself with functional and statistical programming features
Write proper tests to be sure a program works as advertised
Integrate application software using Python

General
Complete name : 01 – The Course Overview.mp4
Format : MPEG-4
Format profile : Base Media / Version 2
Codec ID : mp42
File size : 7.35 MiB
Duration : 3mn 22s
Overall bit rate mode : Variable
Overall bit rate : 305 Kbps
Encoded date : UTC 2017-01-31 16:20:28
Tagged date : UTC 2017-01-31 16:21:18
Writing application : HandBrake 0.9.8 2012071700

Video
ID : 1
Format : AVC
Format/Info : Advanced Video Codec
Format profile : [email protected]
Format settings, CABAC : Yes
Format settings, ReFrames : 4 frames
Codec ID : avc1
Codec ID/Info : Advanced Video Coding
Duration : 3mn 22s
Bit rate : 158 Kbps
Nominal bit rate : 384 Kbps
Width : 1 280 pixels
Height : 720 pixels
Display aspect ratio : 16:9
Frame rate mode : Constant
Frame rate : 30.000 fps
Color space : YUV
Chroma subsampling : 4:2:0
Bit depth : 8 bits
Scan type : Progressive
Bits/(Pixel*Frame) : 0.006
Stream size : 3.80 MiB (52%)
Writing library : x264 core 120
Encoding settings : cabac=1 / ref=1 / deblock=1:0:0 / analyse=0x1:0x111 / me=hex / subme=9 / psy=1 / psy_rd=1.00:0.00 / mixed_ref=0 / me_range=16 / chroma_me=1 / trellis=0 / 8x8dct=0 / cqm=0 / deadzone=21,11 / fast_pskip=1 / chroma_qp_offset=-2 / threads=6 / sliced_threads=0 / nr=0 / decimate=1 / interlaced=0 / bluray_compat=0 / constrained_intra=0 / bframes=3 / b_pyramid=2 / b_adapt=2 / b_bias=0 / direct=3 / weightb=1 / open_gop=0 / weightp=1 / keyint=300 / keyint_min=30 / scenecut=40 / intra_refresh=0 / rc_lookahead=10 / rc=2pass / mbtree=1 / bitrate=384 / ratetol=1.0 / qcomp=0.60 / qpmin=3 / qpmax=69 / qpstep=4 / cplxblur=20.0 / qblur=0.5 / ip_ratio=1.40 / aq=1:1.00
Encoded date : UTC 2017-01-31 16:20:28
Tagged date : UTC 2017-01-31 16:21:18
Color primaries : BT.709
Transfer characteristics : BT.709
Matrix coefficients : BT.709

Audio
ID : 2
Format : AAC
Format/Info : Advanced Audio Codec
Format profile : LC
Codec ID : 40
Duration : 3mn 22s
Bit rate mode : Variable
Bit rate : 144 Kbps
Maximum bit rate : 241 Kbps
Channel(s) : 2 channels
Channel positions : Front: L R
Sampling rate : 48.0 KHz
Compression mode : Lossy
Stream size : 3.46 MiB (47%)
Language : English
Encoded date : UTC 2017-01-31 16:20:28
Tagged date : UTC 2017-01-31 16:21:17

About WoW Team

I’m WoW Team , I love to share all the video tutorials. If you have a video tutorial, please send me, I’ll post on my website. Because knowledge is not limited to, irrespective of qualifications, people join hands to help me.