Lynda.com – Shaun Bryant – AutoCAD Tips & Tricks – Updated 2017

Lynda.com – Shaun Bryant – AutoCAD: Tips &\ Tricks – Updated 2017
English | Size: 440.01 MB
Category: CBTs

Take your CAD skills up a notch. Work smarter, not harder, with AutoCAD. AutoCAD Tips & Tricks provides weekly tips, techniques, and workarounds to make designers like you more effective and more productive. Learn how to use AutoCAD’s features in exciting new ways, customize the workspace and shortcuts to save time, create more accurate drawings with the measurement and organization tools, and more. Shaun Bryant’s insights give you that competitive edge you can’t get from a regular training manual.

Tech Specs:

General
Complete name : G:\Utorrent\Lynda.com – AutoCAD Tips & Tricks (Updated 10.05.2017)\00-Welcome.mp4
Format : MPEG-4
Format profile : Base Media / Version 2
Codec ID : mp42 (mp42/isom)
File size : 3.91 MiB
Duration : 47s 300ms
Overall bit rate mode : Variable
Overall bit rate : 693 Kbps
Encoded date : UTC 2016-10-05 09:52:09
Tagged date : UTC 2016-10-05 09:52:09

Video
ID : 1
Format : AVC
Format/Info : Advanced Video Codec
Format profile : [email protected]
Format settings, CABAC : Yes
Format settings, ReFrames : 5 frames
Codec ID : avc1
Codec ID/Info : Advanced Video Coding
Duration : 47s 300ms
Bit rate mode : Variable
Bit rate : 526 Kbps
Maximum bit rate : 1 000 Kbps
Width : 1 280 pixels
Height : 720 pixels
Display aspect ratio : 16:9
Frame rate mode : Constant
Frame rate : 30.000 fps
Color space : YUV
Chroma subsampling : 4:2:0
Bit depth : 8 bits
Scan type : Progressive
Bits/(Pixel*Frame) : 0.019
Stream size : 2.96 MiB (76%)
Title : Telestream Inc. Dib Library – ReleaseVantage 2014.59.138974
Writing library : x264 core 129
Encoding settings : cabac=1 / ref=5 / deblock=1:0:0 / analyse=0x1:0x111 / me=hex / subme=7 / psy=1 / psy_rd=1.00:0.00 / mixed_ref=1 / me_range=16 / chroma_me=1 / trellis=1 / 8x8dct=0 / cqm=0 / deadzone=21,11 / fast_pskip=1 / chroma_qp_offset=-2 / threads=14 / lookahead_threads=2 / sliced_threads=0 / nr=0 / decimate=1 / interlaced=0 / bluray_compat=0 / constrained_intra=0 / bframes=1 / b_pyramid=0 / b_adapt=1 / b_bias=0 / direct=1 / weightb=1 / open_gop=0 / weightp=2 / keyint=300 / keyint_min=30 / scenecut=40 / intra_refresh=0 / rc_lookahead=40 / rc=crf / mbtree=1 / crf=22.0 / qcomp=0.60 / qpmin=0 / qpmax=69 / qpstep=4 / vbv_maxrate=1000 / vbv_bufsize=6400 / crf_max=0.0 / nal_hrd=vbr / ip_ratio=3.00 / aq=1:1.00
Language : English
Encoded date : UTC 2016-10-05 09:52:09
Tagged date : UTC 2016-10-05 09:52:09

Audio
ID : 2
Format : AAC
Format/Info : Advanced Audio Codec
Format profile : LC
Codec ID : 40
Duration : 47s 267ms
Bit rate mode : Constant
Bit rate : 160 Kbps
Nominal bit rate : 128 Kbps
Channel(s) : 2 channels
Channel positions : Front: L R
Sampling rate : 48.0 KHz
Frame rate : 46.875 fps (1024 spf)
Compression mode : Lossy
Stream size : 922 KiB (23%)
Title : Telestream Inc. Dib Library – ReleaseVantage 2014.59.138974
Language : English
Encoded date : UTC 2016-10-05 09:52:09
Tagged date : UTC 2016-10-05 09:52:09

About WoW Team

I'm WoW Team , I love to share all the video tutorials. If you have a video tutorial, please send me, I'll post on my website. Because knowledge is not limited to, irrespective of qualifications, people join hands to help me.