Linux Academy – Manage & Deploy Code with AWS Developer Tools

Linux Academy – Manage & Deploy Code with AWS Developer Tools
English | Size: 3.46 GB
Category: Tutorial

Designing an application, writing code, solving complex algorithms – that is the easy part. We all know that the true hero is the person who can manage and deploy the code once it has been created. This is where AWS Developer Tools step in and allows you to become the hero every organization needs. AWS CodeCommit, CodeDeploy, and CodePipeline provides all the tools needed to successfully store, manage, and deploy your code to a fleet of servers (or just one) – in either the cloud, on-premise, or both. These services include: CodeCommit: A Git based version control system CodeDeploy: Automate deployments to test, developer & production environments CodePipeline: Create deployment models, and visual deployment workflow So what are you waiting for? Linux Academy will be with you each step-of-the-way, providing the best instructional videos so you can learn and, most importantly, implement what you have learned into real life scenarios.

General
Complete name : 01. Course Introduction.mp4
Format : MPEG-4
Format profile : Base Media / Version 2
Codec ID : mp42
File size : 19.1 MiB
Duration : 3mn 23s
Overall bit rate mode : Variable
Overall bit rate : 789 Kbps
Collection : Manage & Deploy Code with AWS Developer Tools
Season : 1
Part : 1
Part/Position : 1
Part/Total : 13
Track name : Course Introduction
Track name/Position : 1
Track name/Total : 2
Performer : Course Introduction
Genre : CBT
ContentType : TV Show
Encoded date : UTC 2017-02-24 06:19:21
Tagged date : UTC 2017-02-24 06:19:22
Cover : Yes
Rating : None
TVNetworkName : Linux Academy
Part_ID : S01E01
LongDescription : Designing an application, writing code, solving complex algorithms – that is the easy part. We all know that the true hero is the person who can manage and deploy the code once it has been created. This is where AWS Developer Tools step in and allows you to become the hero every organization needs. AWS CodeCommit, CodeDeploy, and CodePipeline provides all the tools needed to successfully store, manage, and deploy your code to a fleet of servers (or just one) – in either the cloud, on-premise, or both. These services include: CodeCommit: A Git based version control system CodeDeploy: Automate deployments to test, developer & production environments CodePipeline: Create deployment models, and visual deployment workflow So what are you waiting for? Linux Academy will be with you each step-of-the-way, providing the best instructional videos so you can learn and, most importantly, implement what you have learned into real life scenarios.
iTunMOVI : / / / / directors / / / name / Thomas Haslett / / / /

Video
ID : 1
Format : AVC
Format/Info : Advanced Video Codec
Format profile : [email protected]
Format settings, CABAC : No
Format settings, ReFrames : 3 frames
Format settings, GOP : M=1, N=60
Muxing mode : Container [email protected]
Codec ID : avc1
Codec ID/Info : Advanced Video Coding
Duration : 3mn 23s
Duration_FirstFrame : 33ms
Bit rate : 624 Kbps
Nominal bit rate : 1 427 Kbps
Width : 1 912 pixels
Original width : 1 920 pixels
Height : 1 088 pixels
Original height : 1 080 pixels
Display aspect ratio : 16:9
Frame rate mode : Constant
Frame rate : 30.000 fps
Color space : YUV
Chroma subsampling : 4:2:0
Bit depth : 8 bits
Scan type : Progressive
Bits/(Pixel*Frame) : 0.010
Stream size : 15.1 MiB (79%)
Writing library : x264 core 148
Encoding settings : cabac=0 / ref=3 / deblock=1:0:0 / analyse=0x1:0x111 / me=hex / subme=7 / psy=1 / psy_rd=1.00:0.00 / mixed_ref=1 / me_range=16 / chroma_me=1 / trellis=1 / 8x8dct=0 / cqm=0 / deadzone=21,11 / fast_pskip=1 / chroma_qp_offset=-2 / threads=34 / lookahead_threads=5 / sliced_threads=0 / nr=0 / decimate=1 / interlaced=0 / bluray_compat=0 / constrained_intra=0 / bframes=0 / weightp=0 / keyint=60 / keyint_min=6 / scenecut=0 / intra_refresh=0 / rc_lookahead=40 / rc=cbr / mbtree=1 / bitrate=1427 / ratetol=1.0 / qcomp=0.60 / qpmin=0 / qpmax=69 / qpstep=4 / vbv_maxrate=1427 / vbv_bufsize=8562 / nal_hrd=none / filler=0 / ip_ratio=1.40 / aq=1:1.00
Encoded date : UTC 2017-02-24 06:19:21
Tagged date : UTC 2017-02-24 06:19:22
Color primaries : BT.709
Transfer characteristics : BT.709
Matrix coefficients : BT.709

Audio
ID : 2
Format : AAC
Format/Info : Advanced Audio Codec
Format profile : LC
Codec ID : 40
Duration : 3mn 23s
Bit rate mode : Variable
Bit rate : 160 Kbps
Maximum bit rate : 171 Kbps
Channel(s) : 2 channels
Channel positions : Front: L R
Sampling rate : 44.1 KHz
Compression mode : Lossy
Stream size : 3.88 MiB (20%)
Encoded date : UTC 2017-02-24 06:19:21
Tagged date : UTC 2017-02-24 06:19:22

Buy Long-term Premium Accounts To Support Me & Max Speed

DOWNLOAD:


http://rapidgator.net/file/978d6471fa0cc8cf54488341f1743230/Linux_Academy_-_Manage_&_Deploy_Code_with_AWS_Developer_Tools.part1.rar.html
http://rapidgator.net/file/d070bafbb0caf6203fbbb21859cc347e/Linux_Academy_-_Manage_&_Deploy_Code_with_AWS_Developer_Tools.part2.rar.html
http://rapidgator.net/file/b861e1c944a397c9e13946cf785ec431/Linux_Academy_-_Manage_&_Deploy_Code_with_AWS_Developer_Tools.part3.rar.html
http://rapidgator.net/file/7389fd859c8edd0fd9c52985904c6d63/Linux_Academy_-_Manage_&_Deploy_Code_with_AWS_Developer_Tools.part4.rar.html
http://rapidgator.net/file/2d51836c431da911e20ab868582156ae/Linux_Academy_-_Manage_&_Deploy_Code_with_AWS_Developer_Tools.part5.rar.html
http://rapidgator.net/file/092a40fb4fe45f7bae09cf52738d0852/Linux_Academy_-_Manage_&_Deploy_Code_with_AWS_Developer_Tools.part6.rar.html


http://nitroflare.com/view/2E98BB2E0E09DE3/Linux_Academy_-_Manage_%26_Deploy_Code_with_AWS_Developer_Tools.part1.rar
http://nitroflare.com/view/ADCA9885FC852A5/Linux_Academy_-_Manage_%26_Deploy_Code_with_AWS_Developer_Tools.part2.rar
http://nitroflare.com/view/99A2DEDEF34A5C9/Linux_Academy_-_Manage_%26_Deploy_Code_with_AWS_Developer_Tools.part3.rar
http://nitroflare.com/view/C315CA433DE683C/Linux_Academy_-_Manage_%26_Deploy_Code_with_AWS_Developer_Tools.part4.rar
http://nitroflare.com/view/AB5E9933638E1CC/Linux_Academy_-_Manage_%26_Deploy_Code_with_AWS_Developer_Tools.part5.rar
http://nitroflare.com/view/6AC78488717D709/Linux_Academy_-_Manage_%26_Deploy_Code_with_AWS_Developer_Tools.part6.rar

If any links die or problem unrar, send request to http://goo.gl/aUHSZc

About WoW Team

I’m WoW Team , I love to share all the video tutorials. If you have a video tutorial, please send me, I’ll post on my website. Because knowledge is not limited to, irrespective of qualifications, people join hands to help me.