iCollege – Certified Information Systems Security Professional (CISSP)

iCollege – Certified Information Systems Security Professional (CISSP)
English | Size: 2.04 GB
Category: Tutorial

The CISSP Certification is administered by the International Information Systems Security Certification Consortium or (ISC)². (ISC)² promotes the CISSP exam as an aid to evaluating personnel performing information security functions. Candidates for this exam are typically network security professionals and system administrators with at least four years of direct work experience in two or more of the ten test domains. As the first ANSI ISO accredited credential in the field of information security, the Certified Information Systems Security Professional (CISSP) certification provides information security professionals with not only an objective measure of competence, but a globally recognized standard of achievement.

General
Complete name : 01 – Course Introduction.mp4
Format : MPEG-4
Format profile : Base Media / Version 2
Codec ID : mp42
File size : 2.30 MiB
Duration : 18s 795ms
Overall bit rate mode : Variable
Overall bit rate : 1 027 Kbps
Encoded date : UTC 2017-02-12 23:27:36
Tagged date : UTC 2017-02-12 23:27:36
Writing application : HandBrake 1.0.1 2016122900

Video
ID : 1
Format : AVC
Format/Info : Advanced Video Codec
Format profile : [email protected]
Format settings, CABAC : Yes
Format settings, ReFrames : 5 frames
Codec ID : avc1
Codec ID/Info : Advanced Video Coding
Duration : 18s 760ms
Bit rate : 858 Kbps
Width : 1 280 pixels
Height : 720 pixels
Display aspect ratio : 16:9
Frame rate mode : Constant
Frame rate : 25.000 fps
Color space : YUV
Chroma subsampling : 4:2:0
Bit depth : 8 bits
Scan type : Progressive
Bits/(Pixel*Frame) : 0.037
Stream size : 1.92 MiB (83%)
Writing library : x264 core 148 r2708 86b7198
Encoding settings : cabac=1 / ref=5 / deblock=1:0:0 / analyse=0x1:0x111 / me=umh / subme=8 / psy=1 / psy_rd=1.00:0.00 / mixed_ref=1 / me_range=16 / chroma_me=1 / trellis=1 / 8x8dct=0 / cqm=0 / deadzone=21,11 / fast_pskip=1 / chroma_qp_offset=-2 / threads=12 / lookahead_threads=2 / sliced_threads=0 / nr=0 / decimate=1 / interlaced=0 / bluray_compat=0 / constrained_intra=0 / bframes=3 / b_pyramid=2 / b_adapt=2 / b_bias=0 / direct=3 / weightb=1 / open_gop=0 / weightp=2 / keyint=250 / keyint_min=25 / scenecut=40 / intra_refresh=0 / rc_lookahead=50 / rc=crf / mbtree=1 / crf=22.0 / qcomp=0.60 / qpmin=0 / qpmax=69 / qpstep=4 / vbv_maxrate=20000 / vbv_bufsize=25000 / crf_max=0.0 / nal_hrd=none / filler=0 / ip_ratio=1.40 / aq=1:1.00
Encoded date : UTC 2017-02-12 23:27:36
Tagged date : UTC 2017-02-12 23:27:36
Color primaries : BT.709
Transfer characteristics : BT.709
Matrix coefficients : BT.709

Audio
ID : 2
Format : AAC
Format/Info : Advanced Audio Codec
Format profile : LC
Codec ID : 40
Duration : 18s 795ms
Bit rate mode : Variable
Bit rate : 163 Kbps
Channel(s) : 2 channels
Channel positions : Front: L R
Sampling rate : 48.0 KHz
Compression mode : Lossy
Stream size : 375 KiB (16%)
Title : Stereo
Language : English
Encoded date : UTC 2017-02-12 23:27:36
Tagged date : UTC 2017-02-12 23:27:36

Buy Long-term Premium Accounts To Support Me & Max Speed

DOWNLOAD:


http://rapidgator.net/file/80ca928a044d9f891aaa6700678109a9/iCollege_-_Certified_Information_Systems_Security_Professional_(CISSP).part1.rar.html
http://rapidgator.net/file/8a1faee37c036b6f878e58af05bd109c/iCollege_-_Certified_Information_Systems_Security_Professional_(CISSP).part2.rar.html
http://rapidgator.net/file/6f77076a30fccd8248aeb52285700110/iCollege_-_Certified_Information_Systems_Security_Professional_(CISSP).part3.rar.html
http://rapidgator.net/file/38c039b68ec33976631308bb3c4df64d/iCollege_-_Certified_Information_Systems_Security_Professional_(CISSP).part4.rar.html


http://nitroflare.com/view/B0949B9714602C6/iCollege_-_Certified_Information_Systems_Security_Professional_%28CISSP%29.part1.rar
http://nitroflare.com/view/F7DAFFFEEE5874D/iCollege_-_Certified_Information_Systems_Security_Professional_%28CISSP%29.part2.rar
http://nitroflare.com/view/9E155C5B65B6B86/iCollege_-_Certified_Information_Systems_Security_Professional_%28CISSP%29.part3.rar
http://nitroflare.com/view/E974730F48C2CFF/iCollege_-_Certified_Information_Systems_Security_Professional_%28CISSP%29.part4.rar

If any links die or problem unrar, send request to http://goo.gl/aUHSZc

About WoW Team

I’m WoW Team , I love to share all the video tutorials. If you have a video tutorial, please send me, I’ll post on my website. Because knowledge is not limited to, irrespective of qualifications, people join hands to help me.