Get Krack!n – 30th August 2017

Get Krack!n – S01E01 (30th August 2017)
English | Size: 221.51 MB
Category: Tutorial

Having conquered the cutthroat world of satirical cooking shows Kate McLennan & Kate McCartney take a Sassy Swipe at the bright, chirpy world of morning TV with their signature brand of social awkwardness & unprofessionalism.

Each morning the Kates will shuffle through a roster of unsafe demonstrations, surly guests, underprepared experts and the over-lit decomposition of the duo’s already rocky relationship. McLennan and McCartney will leave no cultural touchstone unturned, even though they are in no capacity qualified to speak on them, or on anything for that matter.

As always, neither of the women has any sense of on-camera technique; while McCartney’s Daria-esque enthusiasm is a total mis-match to the bright and breezy format, McLennan’s hosting is imbued with a fetid air of desperation. The show should be McCartney and McLennan’s big break, but like any televisual format that the Kates put their rough, manly hands to, things on Get Krack!n will go downhill fast.

‘Get.Krackn.S01E01.HDTV.x264-FQM.mkv’:
metadata:
title : Get Krackn S01E01
creation_time : 2017-09-01 10:07:52
DEscriptION : {name}
Duration: 00:26:30.99, start: 0.000000, bitrate: 1167 kb/s
Chapter #0.0: start 0.054000, end 1590.985000
metadata:
title : 00:00:00.054
Stream #0:0: Video: h264 (High), yuv420p, 720×404, SAR 1:1 DAR 180:101, 50 fps, 50 tbr, 1k tbn, 100 tbc (default)
Stream #0:1: Audio: aac, 48000 Hz, stereo, fltp (default)

About WoW Team

I’m WoW Team , I love to share all the video tutorials. If you have a video tutorial, please send me, I’ll post on my website. Because knowledge is not limited to, irrespective of qualifications, people join hands to help me.