CBTNuggets – Cisco CCENT CCNA ICND1 V3

CBTNuggets – Cisco CCENT CCNA ICND1 V3
English | Size: 4.74 GB
Category: Comp: Network/Hardware

This course covers basic networking topics including network components, configuring and managing Cisco devices,
troubleshooting, security, and more while preparing learners for Cisco’s CCENT ICND1 100-105 v3.0 certification exam.
Beginning with the foundations of cabling, network diagrams, and components,
This course guides you through network concepts and configurations that sustain nearly every organization in the world.
The main objective of the ICND1 100-105 v3.0 course (correlating to the updated Cisco CCENT certification),
is to equip you with the skills necessary to successfully install, operate, and troubleshoot a small branch office network.
However, after watching a few ICND1 Nuggets, you’ll be equipped to handle much more!

The Cisco Certified Entry-level Network Technician (CCENT) certification, achieved by passing the ICND1 100-105 v3.0 certification exam,
is the starting point for many other Cisco certifications.

Format : MPEG-4
Format profile : Base Media
Codec ID : isom (isom/iso2/avc1/mp41)
File size : 33.8 MiB
Duration : 8 min 19 s
Overall bit rate mode : Constant
Overall bit rate : 567 kb/s
Performer : CBT Nuggets!

Video
ID : 1
Format : AVC
Format/Info : Advanced Video Codec
Format profile : [email protected]
Format settings, CABAC : Yes
Format settings, Reframes : 5 frames
Format settings, GOP : M=9, N=30
Codec ID : avc1
Codec ID/Info : Advanced Video Coding
Duration : 8 min 19 s
Bit rate mode : Constant
Bit rate : 500 kb/s / 500 kb/s
Width : 1 280 pixels
Height : 720 pixels
Display aspect ratio : 16:9
frame rate mode : Constant
frame rate : 15.000 FPS
Color space : YUV
Chroma subsampling : 4:2:0
Bit depth : 8 bits
Scan type : Progressive
Bits/(Pixel*frame) : 0.036
Stream size : 29.8 MiB (88%)
Writing library : x264 core 142 r2389 956c8d8

Audio
ID : 2
Format : AAC
Format/Info : Advanced Audio Codec
Format profile : LC
Codec ID : 40
Duration : 8 min 19 s
Duration_Lastframe : 145 ms
Bit rate mode : Constant
Bit rate : 64.0 kb/s
Channel(s) : 2 channels
Channel(s)_Original : 1 channel
Channel positions : Front: C
Sampling rate : 22.05 kHz
frame rate : 21.533 FPS (1024 spf)
Compression mode : Lossy
Stream size : 3.81 MiB (11%)
Default : Yes
Alternate group : 1

Buy Long-term Premium Accounts To Support Me & Max Speed

DOWNLOAD:


http://rapidgator.net/file/c04b6958942ef0656ec3dd98becaa2f1/CBTNuggets_-_Cisco_CCENT_CCNA_ICND1_100-105.part1.rar.html
http://rapidgator.net/file/122dc4653e870f1fdf3edb98474e3ff9/CBTNuggets_-_Cisco_CCENT_CCNA_ICND1_100-105.part2.rar.html
http://rapidgator.net/file/b739c051701a1fd851eec8fa471afdec/CBTNuggets_-_Cisco_CCENT_CCNA_ICND1_100-105.part3.rar.html
http://rapidgator.net/file/f7dcd30103a04cdc5d0e70c18d35c811/CBTNuggets_-_Cisco_CCENT_CCNA_ICND1_100-105.part4.rar.html
http://rapidgator.net/file/fb286f19c5514d0de89c3dcfa2daa404/CBTNuggets_-_Cisco_CCENT_CCNA_ICND1_100-105.part5.rar.html
http://rapidgator.net/file/a1f3b153c810a371f4c1ec00b7e1581d/CBTNuggets_-_Cisco_CCENT_CCNA_ICND1_100-105.part6.rar.html
http://rapidgator.net/file/f3f6557c4b1e0e2aaca23d859295d25d/CBTNuggets_-_Cisco_CCENT_CCNA_ICND1_100-105.part7.rar.html
http://rapidgator.net/file/05d669be72ac702278a081ebf9eebefc/CBTNuggets_-_Cisco_CCENT_CCNA_ICND1_100-105.part8.rar.html


http://nitroflare.com/view/0A749C01388BE33/CBTNuggets_-_Cisco_CCENT_CCNA_ICND1_100-105.part1.rar
http://nitroflare.com/view/343FDFA8593B5CC/CBTNuggets_-_Cisco_CCENT_CCNA_ICND1_100-105.part2.rar
http://nitroflare.com/view/2633D68DB717E9E/CBTNuggets_-_Cisco_CCENT_CCNA_ICND1_100-105.part3.rar
http://nitroflare.com/view/121630F7BE33349/CBTNuggets_-_Cisco_CCENT_CCNA_ICND1_100-105.part4.rar
http://nitroflare.com/view/4B874EC61EC02F9/CBTNuggets_-_Cisco_CCENT_CCNA_ICND1_100-105.part5.rar
http://nitroflare.com/view/8F0DB0347F49AFA/CBTNuggets_-_Cisco_CCENT_CCNA_ICND1_100-105.part6.rar
http://nitroflare.com/view/EA6D6C6D828DA92/CBTNuggets_-_Cisco_CCENT_CCNA_ICND1_100-105.part7.rar
http://nitroflare.com/view/1AC7A56BF490224/CBTNuggets_-_Cisco_CCENT_CCNA_ICND1_100-105.part8.rar

If any links die or problem unrar, send request to http://goo.gl/aUHSZc

About WoW Team

I'm WoW Team , I love to share all the video tutorials. If you have a video tutorial, please send me, I'll post on my website. Because knowledge is not limited to, irrespective of qualifications, people join hands to help me.